Ticket #2110: file_2110.txt

File file_2110.txt, 3.8 KB (added by codeling@…, 6 years ago)

mediainfo for movie

Line 
1mini:~ $ mediainfo /Users/eigil/life.on.mars.s01e01.int.720p.bluray.x264-nodlabs.mkv
2General
3Unique ID                                : 211709114966871732622770796760371106111 (0x9F45B141388C51B18FA1875FD569113F)
4Complete name                            : /Users/eigil/life.on.mars.s01e01.int.720p.bluray.x264-nodlabs.mkv
5Format                                   : Matroska
6Format version                           : Version 1
7File size                                : 2.19 GiB
8Duration                                 : 1h 1mn
9Overall bit rate                         : 5 079 Kbps
10Encoded date                             : UTC 2009-01-31 21:56:32
11Writing application                      : mkvmerge v2.4.2 ('Oh My God') built on Jan 18 2009 17:30:28
12Writing library                          : libebml v0.7.7 + libmatroska v0.8.1
13
14Video
15ID                                       : 1
16Format                                   : AVC
17Format/Info                              : Advanced Video Codec
18Format profile                           : High@L4.1
19Format settings, CABAC                   : Yes
20Format settings, ReFrames                : 5 frames
21Codec ID                                 : V_MPEG4/ISO/AVC
22Duration                                 : 1h 1mn
23Bit rate                                 : 4 437 Kbps
24Width                                    : 1 280 pixels
25Height                                   : 720 pixels
26Display aspect ratio                     : 16:9
27Frame rate mode                          : Constant
28Frame rate                               : 23.976 fps
29Color space                              : YUV
30Chroma subsampling                       : 4:2:0
31Bit depth                                : 8 bits
32Scan type                                : Progressive
33Bits/(Pixel*Frame)                       : 0.201
34Stream size                              : 1.87 GiB (85%)
35Writing library                          : x264 core 66 r1088 71ac0a3
36Encoding settings                        : cabac=1 / ref=5 / deblock=1:0:0 / analyse=0x3:0x133 / me=umh / subme=7 / psy_rd=1.0:0.0 / mixed_ref=1 / me_range=16 / chroma_me=1 / trellis=1 / 8x8dct=1 / cqm=0 / deadzone=21,11 / chroma_qp_offset=-2 / threads=3 / nr=0 / decimate=1 / mbaff=0 / bframes=3 / b_pyramid=1 / b_adapt=1 / b_bias=0 / direct=1 / wpredb=1 / keyint=240 / keyint_min=24 / scenecut=40(pre) / rc=2pass / bitrate=4437 / ratetol=1.0 / qcomp=0.60 / qpmin=10 / qpmax=51 / qpstep=4 / cplxblur=20.0 / qblur=0.5 / ip_ratio=1.40 / pb_ratio=1.30 / aq=1:1.00
37Language                                 : English
38Default                                  : Yes
39Forced                                   : No
40
41Audio
42ID                                       : 2
43Format                                   : AC-3
44Format/Info                              : Audio Coding 3
45Mode extension                           : CM (complete main)
46Format settings, Endianness              : Big
47Codec ID                                 : A_AC3
48Duration                                 : 1h 1mn
49Bit rate mode                            : Constant
50Bit rate                                 : 640 Kbps
51Channel(s)                               : 6 channels
52Channel positions                        : Front: L C R, Side: L R, LFE
53Sampling rate                            : 48.0 KHz
54Bit depth                                : 16 bits
55Compression mode                         : Lossy
56Stream size                              : 282 MiB (13%)
57Default                                  : Yes
58Forced                                   : No
59
60Text
61ID                                       : 3
62Format                                   : UTF-8
63Codec ID                                 : S_TEXT/UTF8
64Codec ID/Info                            : UTF-8 Plain Text
65Default                                  : Yes
66Forced                                   : No