Opened 14 years ago

Closed 14 years ago

Last modified 14 years ago

#160 closed defect (duplicate)

Nero (H264/ACC) problem

Reported by: x-files@… Owned by: diego@…
Priority: normal Component: libavcodec
Version: unspecified Severity: normal
Keywords: Cc:
Blocked By: Blocking:
Reproduced by developer: Analyzed by developer:

Description

Error with Nero AVC...
It's a H264 video and AAC audio.
ftp://ftp.mplayerhq.hu/MPlayer/incoming/nerodigitalAVC/

Same problem in mplayer: http://bugzilla.mplayerhq.hu/show_bug.cgi?id=159

ffmpeg version 0.4.9-pre1, build 4728, Copyright (c) 2000-2004 Fabrice Bellard

configuration: --enable-memalign-hack
built on Nov 9 2004 22:56:27, gcc: 3.3.1 (mingw special 20030804-1)

Input #0, mov,mp4,m4a,3gp, from 'x:\samples\neroavc.mp4':

Duration: 00:00:32.1, start: 0.000000, bitrate: 1685 kb/s
Stream #0.0: Video:

AVC Coding, 720x576, 0.00 fps

Stream #0.1: Audio: 0x6134706d, 24000 Hz, stereo

Output #0, avi, to 'c:\nero.avi':

Stream #0.0: Video: mpeg4, 720x576, 0.00 fps, q=2-31, 200 kb/s
Stream #0.1: Audio: mp2, 24000 Hz, stereo, 64 kb/s

Stream mapping:

Stream #0.0 -> #0.0
Stream #0.1 -> #0.1

[mp2 @ 006CF440]64 kb/s, 24000 Hz, frame_size=3072 bits, table=4, padincr=0
Unsupported codec (id=0) for input stream #0.0

Change History (2)

comment:1 Changed 14 years ago by diego@…

  • Component changed from libavformat to libavcodec
  • op_sys changed from MinGW to All
  • Status changed from new to assigned

This belongs to libavcodec and also happens on Linux. Bug report sent to
ffmpeg-devel.

comment:2 Changed 14 years ago by dominik@…

  • Resolution set to duplicate
  • Status changed from assigned to closed

If it's the same, let's not have duplicates. Closing as duplicate.

* This bug has been marked as a duplicate of 159 *

Note: See TracTickets for help on using tickets.